#TITLE:Eien;
#SUBTITLE:;
#ARTIST:BoA KWon;
#TITLETRANSLIT:;
#SUBTITLETRANSLIT:;
#ARTISTTRANSLIT:;
#CREDIT:;
#BANNER:eien-bn.jpg;
#BACKGROUND:;
#LYRICSPATH:;
#CDTITLE:cdtitle.png;
#MUSIC:Eien.ogg;
#OFFSET:0.000;
#SAMPLESTART:100.000;
#SAMPLELENGTH:20.000;
#SELECTABLE:YES;
#DISPLAYBPM:160.000;
#BPMS:0.000=160.000,258.000=80.000,262.000=160.000;
#STOPS:;
#BGCHANGES:;
// cache tags:
#FIRSTBEAT:0.000;
#LASTBEAT:476.833;
#SONGFILENAME:Songs/Music V.I.P ^_^/Eien/Eien.sm;
#HASMUSIC:1;
#HASBANNER:1;
#MUSICLENGTH:185.964;
// end cache tags

//---------------dance-single - ----------------
#NOTES:
     dance-single:
     :
     Hard:
     15:
     1.000,1.000,1.000,0.613,0.769,1145.000,463.000,114.000,0.000,182.000:
0100
0100
0100
0100
0211
1000
0010
1302
,
1213
1000
1000
1320
1132
0000
0100
0000
,
1113
1000
1000
1000
1121
0100
1000
0231
,
1302
1000
0010
1203
1321
0000
0100
0000
,
1131
1000
1000
1000
1211
1000
0001
1320
,
1132
1000
1000
1023
1231
0000
0010
0000
,
1311
1001
1010
1001
1010
0101
0110
0101
,
1110
0000
1001
0000
1010
0000
1001
0100
1010
0001
0100
1000
0010
0001
0100
1000
,
0111
1000
0100
0001
0010
0000
0100
0000
2011
0000
0010
0000
0100
0000
3201
0000
,
1321
1000
0001
1032
1123
1000
0001
1000
,
2132
0003
0102
3003
1120
0100
1000
0231
,
1321
0100
1000
0231
1321
0102
1000
0100
,
1133
1000
1000
1000
1102
1000
1000
1023
,
1132
1000
1000
1023
1132
1000
1000
1000
,
1113
1001
1010
1001
1010
0101
0110
0101
,
1110
0000
1001
0000
1010
0000
1001
0100
1010
0001
1000
0100
1000
0001
0010
0001
,
1110
0001
0010
0100
1001
0000
0010
0000
1110
0000
0000
0000
1001
0000
0100
0000
,
1011
0100
0011
1000
1020
0000
1130
0000
,
1101
0000
0110
0000
1010
0000
1001
0010
,
1101
0000
0201
0320
1032
0003
0101
0000
,
1011
0000
0000
0000
0110
0000
0000
0000
1001
0000
0010
0100
0011
0000
1000
0000
,
0111
1010
0100
0010
1001
0000
0101
0000
,
1001
0000
0000
0000
0110
0000
0000
0000
1001
0000
0100
0010
1100
0000
0001
0000
,
1110
0000
0110
0000
1001
0000
0010
0000
1101
0010
0001
0010
1101
0010
0001
0010
,
1101
0010
0001
0010
0001
0010
0001
0010
1101
0000
0000
0000
1010
0000
0100
0000
,
1011
0100
1010
0001
1102
0000
1013
0000
,
1011
0000
1001
0000
1001
0110
0110
1000
,
0111
0000
1000
0000
0101
0000
1000
0000
0201
0010
0001
0010
1301
0010
0100
1000
,
0111
0000
0000
0000
1001
0010
0100
0000
0101
0000
0100
0010
0101
0000
1000
0000
,
0111
1100
0101
0010
1001
0010
0110
0000
,
1001
0000
0000
0000
0110
0000
0000
0000
1001
0000
0100
0010
1100
0000
0010
0000
,
1101
0000
1010
0000
0101
0000
1000
0000
0101
0000
0010
0000
1001
0010
0100
0010
,
1001
0010
0100
0010
0001
0010
0100
0010
1001
0000
0000
0000
1001
0000
0010
0000
,
1101
0000
1010
0100
1001
0000
0110
0000
,
1011
0000
1001
0000
1001
1001
0101
0010
,
1101
0000
0000
0000
1001
0000
0010
0000
0101
0010
0100
0010
1001
0010
0100
0010
,
1101
0010
0100
0010
1001
0010
0100
0010
0101
0000
0010
0000
1020
0000
0030
0000
,
1001
0100
1001
0010
0011
0100
0110
1000
,
1002
0000
0023
0000
1031
0100
1000
0100
1021
0000
0000
0000
0000
0000
2030
0000
,
3211
0000
0000
0302
1023
0000
0000
0000
,
1031
0100
1000
0001
1000
0010
1000
0100
1011
0000
0100
0000
1010
0000
0010
0000
,
1101
0000
1010
0000
0111
0000
2002
3003
,
1011
0100
1000
0100
0011
0000
0100
0000
1011
0000
0100
0000
0011
0000
0100
0000
,
1011
0000
0011
0000
1101
0000
2002
3003
,
0101
0010
1001
0000
0101
0000
0011
0000
0101
0000
1001
0000
0101
0000
0011
0000
,
1001
0100
1010
0000
1100
0000
1010
0000
1100
0000
1010
0000
1001
0000
1010
0000
,
1100
0010
0101
0000
0110
0000
1100
0000
0101
0010
1000
0100
0010
0001
1000
0100
,
1011
0000
0100
0000
1010
0000
0011
0000
1001
0010
0001
0010
0100
1000
0100
0001
,
1110
0000
0010
0000
1001
0000
0100
0000
0111
1000
0100
0010
0001
1000
0100
0010
,
1101
0010
0100
1000
0001
0010
0100
1000
0012
1000
0100
0013
2100
0001
3010
0000
,
1101
0010
0100
1000
0001
0010
0100
1000
0011
1000
0100
0010
0001
1000
0100
0010
,
1101
0010
0100
1000
0001
0010
0100
1000
0012
1000
0100
0013
2100
0001
3010
0000
,
1101
0010
0100
1000
0001
0010
0100
1000
0011
1000
0100
0010
0001
1000
0100
0010
,
1101
0010
0100
1000
0001
0010
0100
1000
0011
1000
0100
0010
0001
1000
0100
0010
,
1101
0010
0100
1000
0001
0010
0100
1000
0012
1000
0100
0010
0100
1000
0123
0001
,
2130
0001
0100
0010
0001
0010
0100
0010
3102
1000
0100
0010
0100
1000
0010
0100
,
2013
0100
3010
0100
2011
0100
3010
0100
,
1012
0010
0103
0010
2101
0010
3100
0010
,
2101
0100
3110
0011
1102
0010
0103
1000
,
2011
0100
3010
0001
1012
0100
0013
0001
,
1012
0010
0113
1100
2101
0001
3010
0100
,
1021
1000
0031
1000
1102
1000
0013
1000
,
1011
0101
1001
0101
0011
0101
1001
0101
,
0011
0000
1010
0000
1001
0000
1001
0010
1001
0010
0100
0010
1000
0100
1000
0010
,
1101
0010
0100
1000
0010
0100
0010
0000
1001
0000
0101
0000
1001
0000
0101
0000
,
0011
0101
1111
0101
0011
0000
1001
0000
,
1110
0001
1010
0100
1001
0000
1001
0100
,
1101
0010
0100
0010
1001
0100
0010
0100
1001
0000
0100
0010
1001
0000
0010
0000
,
1100
0000
0010
0000
0101
0000
1000
0000
0101
0000
0010
0100
1001
0010
0100
1000
,
0111
0000
0100
0010
0101
0000
1000
0000
0011
0000
0100
0010
1100
0000
0001
0000
,
0110
0000
1000
0000
0101
0000
0010
0000
1001
0100
0010
0100
0011
0100
0010
0100
,
1011
0100
0010
0100
0011
0100
0010
0100
1011
0000
0001
0100
1010
0000
0100
0000
,
1011
0100
0010
0001
1020
0100
1001
0130
,
1210
0001
0010
0001
1320
0001
0100
0001
1130
0000
1001
0000
0110
0000
1000
0000
,
0111
0000
1000
0000
0101
0000
1000
0000
0121
1000
0100
0001
1130
0001
0010
0001
,
1110
0001
0100
1000
0011
0100
1000
0001
0110
0000
0010
0001
1100
0000
0001
0000
,
0111
0000
1000
0000
0101
0000
0010
0000
1100
0000
0010
0000
1100
0010
0001
1000
,
0121
1000
0100
0001
1130
0000
0100
0000
1010
0000
0100
1000
0011
0000
0100
0000
,
1101
0000
1100
0000
0011
0000
0110
0000
1100
0001
0010
0001
1100
0001
0010
0001
,
1100
0001
0010
0001
1100
0001
0010
0001
1100
0000
0000
0000
0100
0000
1000
0000
,
0111
1001
0100
0010
1001
0010
0100
1000
,
0111
0010
0100
1000
0110
0001
0010
0100
,
0111
1000
0100
0010
1001
0100
0010
0001
,
1110
0010
0100
1000
0101
0010
0001
0100
,
1110
1000
0100
0001
1010
0100
0010
0001
,
0111
0000
1000
0010
0100
0010
0001
0000
1102
0000
0010
0000
1000
0000
0203
0000
,
1321
1001
1000
0230
2311
0000
0010
0000
,
3101
0000
0000
0000
0110
0000
0101
0000
1010
0100
1000
0010
0101
1000
0010
0100
,
1010
0100
1000
0100
1001
0010
1000
0010
0201
0000
0000
0000
2320
0000
3030
0000
,
0201
0000
0300
0000
1001
0000
0101
1000
0011
0100
1001
0010
0101
1000
0011
0100
,
2001
0000
3011
0000
2001
0000
3122
0033
,
1200
0000
0000
0000
1310
0000
0100
0010
1100
0001
1010
0100
1001
0100
1010
0001
,
1110
0000
1001
0000
0010
0000
1100
0001
0110
1000
0101
1000
0011
0100
1010
0100
,
1011
0000
1100
0000
0010
0000
1001
0010
1100
0001
0010
0100
0011
0100
1000
0100
,
1010
0001
0010
0100
1000
0100
0010
0100
1010
0101
0010
0101
1010
0101
0010
0001
,
1110
0001
0010
0100
1001
0000
0100
0000
1001
0010
0101
1000
0001
0010
0100
1000
,
0111
1000
0100
0010
0001
0010
0100
1000
0102
1000
0100
0013
2001
0100
3010
0000
,
1101
0010
0100
1000
0001
1000
0100
0010
0001
1000
0100
0010
1001
0010
0100
1000
,
0111
1000
0100
1000
0001
0010
0100
1000
0012
1000
0100
0013
2001
0010
3100
0000
,
0112
1000
0100
0013
0001
0010
0100
1000
0101
1000
0100
0010
0001
0010
0100
1000
,
0111
1000
0101
1000
0001
0010
0100
1000
0101
0010
0001
1000
0100
0010
1000
0010
,
1101
0010
1001
0010
0100
1000
0100
0010
1001
0100
0010
0100
1000
0001
1000
0001
,
1110
0001
0010
0100
1000
0001
0010
0100
1010
0100
1010
0001
1010
0100
1010
0001
,
1010
0100
1001
0010
0101
0000
1100
0000
2001
0000
0100
0000
3010
0000
0100
0000
,
1012
0100
0013
0100
2011
0010
3100
0010
,
1102
0010
0103
0010
2101
0100
3110
0011
,
1102
0010
0103
1000
2011
0100
3010
0001
,
1012
0100
0013
0001
1012
0010
0113
1100
,
2101
0000
0001
0000
3010
0000
0100
0000
1012
0000
1000
0003
0001
0000
1000
0000
,
1011
0101
1001
0101
0011
0101
1001
0101
,
0011
0000
1010
0000
1001
0000
1001
0000
1001
0010
0100
0010
1000
0100
1000
0010
,
1101
0010
0100
1000
0010
0100
0010
0000
2110
0000
0000
0000
3011
0000
0000
0000
,
2110
3011
2110
3011
,
0111
1000
0100
1000
0111
0000
0001
0000
,
2110
3001
2110
3001
,
1110
0001
0010
0001
1110
0000
1000
0000
,
0112
1003
0112
1003
,
0110
1001
0110
1100
0110
0011
0110
1100
,
1001
0000
0000
0011
0000
0000
0110
0000
0000
0000
0000
0011
0000
0000
0000
0000
0000
0110
0000
0000
0000
0000
0000
1100
,
0000
0000
0000
0000
0000
1100
0000
0000
0000
0000
0000
0000
0000
0000
0000
0000
0000
0000
0000
0000
0000
0000
0000
0000
;
